Onkyo4k Online Sharing Community

Register a free account today to become a member! Once signed in, you'll be able to participate on this site by adding your own topics and posts, as well as connect with other members through your own private inbox!

Venom Let There Be Carnage 2021 2160p AMZN WEB-DL DDP5 1 HDR HEVC-CMRG

Action, Adventure, Sci-Fi, Thriller IMDB: 6.1

ace71

VIP Member
Venom Let There Be Carnage 2021 2160p AMZN WEB-DL DDP5 1 HDR HEVC-CMRG




Code:
https://www.imdb.com/title/tt7097896/
Code:
General
Unique ID                                : 208103577669766878701533280168810143339 (0x9C8F4A8A909A569BAADE47421F445E6B)
Complete name                            : Venom.Let.There.Be.Carnage.2021.2160p.AMZN.WEB-DL.DDP5.1.HDR.HEVC-CMRG.mkv
Format                                   : Matroska
Format version                           : Version 4
File size                                : 10.5 GiB
Duration                                 : 1 h 37 min
Overall bit rate                         : 15.4 Mb/s
Encoded date                             : UTC 2021-11-23 05:01:53
Writing application                      : mkvmerge v61.0.0 ('So') 64-bit
Writing library                          : libebml v1.4.2 + libmatroska v1.6.4

Video
ID                                       : 1
Format                                   : HEVC
Format/Info                              : High Efficiency Video Coding
Format profile                           : Main [email protected]@Main
HDR format                               : SMPTE ST 2094 App 4, Version 1, HDR10+ Profile B compatible
Codec ID                                 : V_MPEGH/ISO/HEVC
Duration                                 : 1 h 37 min
Bit rate                                 : 14.8 Mb/s
Width                                    : 3 840 pixels
Height                                   : 2 080 pixels
Display aspect ratio                     : 1.85:1
Frame rate mode                          : Constant
Frame rate                               : 23.976 (24000/1001) FPS
Color space                              : YUV
Chroma subsampling                       : 4:2:0
Bit depth                                : 10 bits
Bits/(Pixel*Frame)                       : 0.077
Stream size                              : 10.0 GiB (96%)
Default                                  : Yes
Forced                                   : No
Color range                              : Limited
Color primaries                          : BT.2020
Transfer characteristics                 : PQ
Matrix coefficients                      : BT.2020 non-constant
Mastering display color primaries        : BT.2020
Mastering display luminance              : min: 0.0001 cd/m2, max: 1000 cd/m2
Maximum Content Light Level              : 5681 cd/m2
Maximum Frame-Average Light Level        : 522 cd/m2

Audio
ID                                       : 2
Format                                   : E-AC-3
Format/Info                              : Enhanced AC-3
Commercial name                          : Dolby Digital Plus
Codec ID                                 : A_EAC3
Duration                                 : 1 h 37 min
Bit rate mode                            : Constant
Bit rate                                 : 640 kb/s
Channel(s)                               : 6 channels
Channel layout                           : L R C LFE Ls Rs
Sampling rate                            : 48.0 kHz
Frame rate                               : 31.250 FPS (1536 SPF)
Compression mode                         : Lossy
Stream size                              : 445 MiB (4%)
Title                                    : English
Language                                 : English
Service kind                             : Complete Main
Default                                  : No
Forced                                   : No

Text #1
ID                                       : 3
Format                                   : UTF-8
Codec ID                                 : S_TEXT/UTF8
Codec ID/Info                            : UTF-8 Plain Text
Duration                                 : 1 h 36 min
Bit rate                                 : 56 b/s
Count of elements                        : 1658
Stream size                              : 40.0 KiB (0%)
Title                                    : English
Language                                 : English
Default                                  : No
Forced                                   : No

Text #2
ID                                       : 4
Format                                   : UTF-8
Codec ID                                 : S_TEXT/UTF8
Codec ID/Info                            : UTF-8 Plain Text
Duration                                 : 1 h 36 min
Bit rate                                 : 71 b/s
Count of elements                        : 1863
Stream size                              : 50.5 KiB (0%)
Title                                    : English [SDH]
Language                                 : English
Default                                  : No
Forced                                   : No





Code:
http://uploaded.net/file/fvh3mw9y/Ven254723.418a31.5ce0.861.part1.rar
http://uploaded.net/file/pysasw8y/Ven254723.418a31.5ce0.861.part2.rar
http://uploaded.net/file/ofnbt6pk/Ven254723.418a31.5ce0.861.part3.rar
http://uploaded.net/file/pkdm4mk3/Ven254723.418a31.5ce0.861.part4.rar
http://uploaded.net/file/ujvsibhg/Ven254723.418a31.5ce0.861.part5.rar
http://uploaded.net/file/ams0lux4/Ven254723.418a31.5ce0.861.part6.rar


Code:
https://nitro.download/view/2067926C7FC314F/Ven254723.418a31.5ce0.861.part1.rar
https://nitro.download/view/B6C3496E806DE84/Ven254723.418a31.5ce0.861.part2.rar
 

Similar threads

Top