Onkyo4k Online Sharing Community

Register a free account today to become a member! Once signed in, you'll be able to participate on this site by adding your own topics and posts, as well as connect with other members through your own private inbox!

Venom Let There Be Carnage 2021 1080p AMZN WEB-DL DDP5 1 H 264-alfaHD

Action, Adventure, Sci-Fi, Thriller IMDB: 6.1

ace71

VIP Member
Venom Let There Be Carnage 2021 1080p AMZN WEB-DL DDP5 1 H 264-alfaHD




Code:
https://www.imdb.com/title/tt7097896/
Code:
General
Unique ID                                : 122531078741824487752519004773148507085 (0x5C2EA09B1A8DA5B8D8D71124DC5FBBCD)
Complete name                            : Venom.Let.There.Be.Carnage.2021.1080p.AMZN.WEB-DL.DDP5.1.H.264-alfaHD.mkv
Format                                   : Matroska
Format version                           : Version 4
File size                                : 4.97 GiB
Duration                                 : 1 h 37 min
Overall bit rate                         : 7 297 kb/s
Writing application                      : mkvmerge v58.0.0 ('Supper's Ready') 64-bit
Writing library                          : libebml v1.4.2 + libmatroska v1.6.4

Video
ID                                       : 1
Format                                   : AVC
Format/Info                              : Advanced Video Codec
Format profile                           : [email protected]
Format settings                          : CABAC / 4 Ref Frames
Format settings, CABAC                   : Yes
Format settings, Reference frames        : 4 frames
Codec ID                                 : V_MPEG4/ISO/AVC
Duration                                 : 1 h 37 min
Bit rate mode                            : Constant
Bit rate                                 : 6 654 kb/s
Nominal bit rate                         : 10 000 kb/s
Width                                    : 1 920 pixels
Height                                   : 1 040 pixels
Display aspect ratio                     : 1.85:1
Frame rate mode                          : Constant
Frame rate                               : 23.976 (24000/1001) FPS
Color space                              : YUV
Chroma subsampling                       : 4:2:0
Bit depth                                : 8 bits
Scan type                                : Progressive
Bits/(Pixel*Frame)                       : 0.139
Stream size                              : 4.53 GiB (91%)
Default                                  : Yes
Forced                                   : No
Color range                              : Limited
Color primaries                          : BT.709
Transfer characteristics                 : BT.709
Matrix coefficients                      : BT.709

Audio
ID                                       : 2
Format                                   : E-AC-3
Format/Info                              : Enhanced AC-3
Commercial name                          : Dolby Digital Plus
Codec ID                                 : A_EAC3
Duration                                 : 1 h 37 min
Bit rate mode                            : Constant
Bit rate                                 : 640 kb/s
Channel(s)                               : 6 channels
Channel layout                           : L R C LFE Ls Rs
Sampling rate                            : 48.0 kHz
Frame rate                               : 31.250 FPS (1536 SPF)
Compression mode                         : Lossy
Stream size                              : 447 MiB (9%)
Language                                 : English
Service kind                             : Complete Main
Default                                  : Yes
Forced                                   : No

Text #1
ID                                       : 3
Format                                   : UTF-8
Codec ID                                 : S_TEXT/UTF8
Codec ID/Info                            : UTF-8 Plain Text
Duration                                 : 1 h 35 min
Bit rate                                 : 60 b/s
Count of elements                        : 1495
Stream size                              : 42.3 KiB (0%)
Language                                 : English
Default                                  : No
Forced                                   : No

Text #2
ID                                       : 4
Format                                   : UTF-8
Codec ID                                 : S_TEXT/UTF8
Codec ID/Info                            : UTF-8 Plain Text
Duration                                 : 1 h 36 min
Bit rate                                 : 71 b/s
Count of elements                        : 1860
Stream size                              : 50.5 KiB (0%)
Title                                    : SDH
Language                                 : English
Default                                  : No
Forced                                   : No

Text #3
ID                                       : 5
Format                                   : UTF-8
Codec ID                                 : S_TEXT/UTF8
Codec ID/Info                            : UTF-8 Plain Text
Duration                                 : 1 h 36 min
Bit rate                                 : 46 b/s
Count of elements                        : 1087
Stream size                              : 32.5 KiB (0%)
Title                                    : Latinoamérica
Language                                 : Spanish
Default                                  : No
Forced                                   : No

Text #4
ID                                       : 6
Format                                   : UTF-8
Codec ID                                 : S_TEXT/UTF8
Codec ID/Info                            : UTF-8 Plain Text
Duration                                 : 1 h 36 min
Bit rate                                 : 48 b/s
Count of elements                        : 1099
Stream size                              : 34.0 KiB (0%)
Title                                    : España
Language                                 : Spanish
Default                                  : No
Forced                                   : No

Text #5
ID                                       : 7
Format                                   : UTF-8
Codec ID                                 : S_TEXT/UTF8
Codec ID/Info                            : UTF-8 Plain Text
Duration                                 : 1 h 36 min
Bit rate                                 : 48 b/s
Count of elements                        : 1057
Stream size                              : 34.4 KiB (0%)
Language                                 : Italian
Default                                  : No
Forced                                   : No

Text #6
ID                                       : 8
Format                                   : UTF-8
Codec ID                                 : S_TEXT/UTF8
Codec ID/Info                            : UTF-8 Plain Text
Duration                                 : 1 h 36 min
Bit rate                                 : 47 b/s
Count of elements                        : 1077
Stream size                              : 33.3 KiB (0%)
Language                                 : Portuguese
Default                                  : No
Forced                                   : No





Code:
http://uploaded.net/file/bhys6svw/Ven25ee.36cb.101.154.f10b.d8.part1.rar
http://uploaded.net/file/ytxfqdux/Ven25ee.36cb.101.154.f10b.d8.part2.rar
http://uploaded.net/file/h5nlrjdr/Ven25ee.36cb.101.154.f10b.d8.part3.rar


Code:
https://nitro.download/view/A93F8E3C3276184/Ven25ee.36cb.101.154.f10b.d8.rar
 
Last edited:

Similar threads

Top