Onkyo4k Online Sharing Community

Register a free account today to become a member! Once signed in, you'll be able to participate on this site by adding your own topics and posts, as well as connect with other members through your own private inbox!

The Christmas Promise 2021 1080p AMZN WEBRip DDP5 1 x264-TEPES

ppppppppppppppppppp IMDB: 6.9

ace71

VIP Member
The Christmas Promise 2021 1080p AMZN WEBRip DDP5 1 x264-TEPES




Code:
https://www.imdb.com/title/tt15348352/
Code:
General
Unique ID                                : 115625775686556543670470584513729205338 (0x56FCB6E1331CD0DB7C4E4A13A2B9145A)
Complete name                            : The.Christmas.Promise.2021.1080p.AMZN.WEB-DL.DDP5.1.H.264-TEPES.mkv
Format                                   : Matroska
Format version                           : Version 4
File size                                : 6.03 GiB
Duration                                 : 1 h 24 min
Overall bit rate                         : 10.3 Mb/s
Writing application                      : mkvmerge v62.0.0 ('Apollo') 64-bit
Writing library                          : libebml v1.4.2 + libmatroska v1.6.4

Video
ID                                       : 1
Format                                   : AVC
Format/Info                              : Advanced Video Codec
Format profile                           : [email protected]
Format settings                          : CABAC / 4 Ref Frames
Format settings, CABAC                   : Yes
Format settings, Reference frames        : 4 frames
Codec ID                                 : V_MPEG4/ISO/AVC
Duration                                 : 1 h 24 min
Bit rate mode                            : Constant
Bit rate                                 : 10 000 kb/s
Width                                    : 1 920 pixels
Height                                   : 1 080 pixels
Display aspect ratio                     : 16:9
Frame rate mode                          : Constant
Frame rate                               : 30.000 FPS
Color space                              : YUV
Chroma subsampling                       : 4:2:0
Bit depth                                : 8 bits
Scan type                                : Progressive
Bits/(Pixel*Frame)                       : 0.161
Stream size                              : 5.65 GiB (94%)
Default                                  : Yes
Forced                                   : No
Color range                              : Limited
Color primaries                          : BT.709
Transfer characteristics                 : BT.709
Matrix coefficients                      : BT.709

Audio
ID                                       : 2
Format                                   : E-AC-3
Format/Info                              : Enhanced AC-3
Commercial name                          : Dolby Digital Plus
Codec ID                                 : A_EAC3
Duration                                 : 1 h 24 min
Bit rate mode                            : Constant
Bit rate                                 : 640 kb/s
Channel(s)                               : 6 channels
Channel layout                           : L R C LFE Ls Rs
Sampling rate                            : 48.0 kHz
Frame rate                               : 31.250 FPS (1536 SPF)
Compression mode                         : Lossy
Stream size                              : 385 MiB (6%)
Language                                 : English
Service kind                             : Complete Main
Default                                  : Yes
Forced                                   : No

Text #1
ID                                       : 3
Format                                   : UTF-8
Codec ID                                 : S_TEXT/UTF8
Codec ID/Info                            : UTF-8 Plain Text
Duration                                 : 1 h 23 min
Bit rate                                 : 75 b/s
Count of elements                        : 1836
Stream size                              : 45.9 KiB (0%)
Language                                 : English
Default                                  : No
Forced                                   : No

Text #2
ID                                       : 4
Format                                   : UTF-8
Codec ID                                 : S_TEXT/UTF8
Codec ID/Info                            : UTF-8 Plain Text
Duration                                 : 1 h 23 min
Bit rate                                 : 81 b/s
Count of elements                        : 2056
Stream size                              : 50.0 KiB (0%)
Title                                    : SDH
Language                                 : English
Default                                  : No
Forced                                   : No




Code:
https://nitro.download/view/0BE94C5E04CD2D7/Chris.Prom08e.27880afb11.f6d3.part1.rar
https://nitro.download/view/8FF7F73E95261D3/Chris.Prom08e.27880afb11.f6d3.part2.rar
 

Similar threads

Top