Onkyo4k Online Sharing Community

Register a free account today to become a member! Once signed in, you'll be able to participate on this site by adding your own topics and posts, as well as connect with other members through your own private inbox!

The Book of Vision 2021 1080p WEB-DL DD5 1 H 264-EVO

Drama, Mystery IMDB: 5.2

ace71

VIP Member
The Book of Vision 2021 1080p WEB-DL DD5 1 H 264-EVO




Code:
https://www.imdb.com/title/tt4016312/
Code:
General
Unique ID                                : 130176248251959674087363856637829223919 (0x61EF08908C8F005589218984CA3695EF)
Complete name                            : The.Book.of.Vision.2021.1080p.WEB-DL.DD5.1.H.264-EVO.mkv
Format                                   : Matroska
Format version                           : Version 4
File size                                : 4.83 GiB
Duration                                 : 1 h 38 min
Overall bit rate                         : 7 017 kb/s
Encoded date                             : UTC 2021-11-15 00:03:28
Writing application                      : mkvmerge v19.0.0 ('Brave Captain') 64-bit
Writing library                          : libebml v1.3.5 + libmatroska v1.4.8

Video
ID                                       : 1
Format                                   : AVC
Format/Info                              : Advanced Video Codec
Format profile                           : [email protected]
Format settings                          : CABAC / 5 Ref Frames
Format settings, CABAC                   : Yes
Format settings, Reference frames        : 5 frames
Codec ID                                 : V_MPEG4/ISO/AVC
Duration                                 : 1 h 38 min
Bit rate                                 : 6 631 kb/s
Width                                    : 1 920 pixels
Height                                   : 804 pixels
Display aspect ratio                     : 2.40:1
Frame rate mode                          : Constant
Frame rate                               : 24.000 FPS
Color space                              : YUV
Chroma subsampling                       : 4:2:0
Bit depth                                : 8 bits
Scan type                                : Progressive
Bits/(Pixel*Frame)                       : 0.179
Stream size                              : 4.56 GiB (95%)
Default                                  : Yes
Forced                                   : No
Color range                              : Limited
Color primaries                          : BT.709
Transfer characteristics                 : BT.709
Matrix coefficients                      : BT.709

Audio
ID                                       : 2
Format                                   : AC-3
Format/Info                              : Audio Coding 3
Commercial name                          : Dolby Digital
Codec ID                                 : A_AC3
Duration                                 : 1 h 38 min
Bit rate mode                            : Constant
Bit rate                                 : 384 kb/s
Channel(s)                               : 6 channels
Channel layout                           : L R C LFE Ls Rs
Sampling rate                            : 48.0 kHz
Frame rate                               : 31.250 FPS (1536 SPF)
Compression mode                         : Lossy
Stream size                              : 271 MiB (5%)
Title                                    : English
Language                                 : English
Service kind                             : Complete Main
Default                                  : No
Forced                                   : No




Code:
https://nitro.download/view/1D4161950BE7843/Boo001a5e.da5ddf628.3fcbd2a3.3c5515.rar
 

Similar threads

Top