Onkyo4k Online Sharing Community

Register a free account today to become a member! Once signed in, you'll be able to participate on this site by adding your own topics and posts, as well as connect with other members through your own private inbox!

Spencer 2021 1080p AMZN WEB-DL DDP5 1 H.264-EVO

Biography, Drama IMDB: 7.0

ace71

VIP Member
Spencer 2021 1080p AMZN WEB-DL DDP5 1 H.264-EVO




Code:
https://www.imdb.com/title/tt12536294/
Code:
General
Unique ID                                : 30251016078565107168221625095002932259 (0x16C2223ED76AF979BA8806C870764423)
Complete name                            : Spencer.2021.1080p.AMZN.WEB-DL.DDP5.1.H.264-EVO.mkv
Format                                   : Matroska
Format version                           : Version 4
File size                                : 9.55 GiB
Duration                                 : 1 h 56 min
Overall bit rate                         : 11.7 Mb/s
Encoded date                             : UTC 2021-11-23 03:33:39
Writing application                      : mkvmerge v45.0.0 ('Heaven in Pennies') 64-bit
Writing library                          : libebml v1.3.10 + libmatroska v1.5.2

Video
ID                                       : 1
Format                                   : AVC
Format/Info                              : Advanced Video Codec
Format profile                           : [email protected]
Format settings                          : CABAC / 4 Ref Frames
Format settings, CABAC                   : Yes
Format settings, Reference frames        : 4 frames
Codec ID                                 : V_MPEG4/ISO/AVC
Duration                                 : 1 h 56 min
Bit rate                                 : 11.1 Mb/s
Width                                    : 1 800 pixels
Height                                   : 1 080 pixels
Display aspect ratio                     : 5:3
Frame rate mode                          : Constant
Frame rate                               : 24.000 FPS
Color space                              : YUV
Chroma subsampling                       : 4:2:0
Bit depth                                : 8 bits
Scan type                                : Progressive
Bits/(Pixel*Frame)                       : 0.238
Stream size                              : 9.02 GiB (95%)
Default                                  : Yes
Forced                                   : No
Color range                              : Limited
Color primaries                          : BT.709
Transfer characteristics                 : BT.709
Matrix coefficients                      : BT.709

Audio
ID                                       : 2
Format                                   : E-AC-3
Format/Info                              : Enhanced AC-3
Commercial name                          : Dolby Digital Plus
Codec ID                                 : A_EAC3
Duration                                 : 1 h 56 min
Bit rate mode                            : Constant
Bit rate                                 : 640 kb/s
Channel(s)                               : 6 channels
Channel layout                           : L R C LFE Ls Rs
Sampling rate                            : 48.0 kHz
Frame rate                               : 31.250 FPS (1536 SPF)
Compression mode                         : Lossy
Stream size                              : 534 MiB (5%)
Language                                 : English
Service kind                             : Complete Main
Default                                  : Yes
Forced                                   : No

Menu
00:00:00.000                             : en:Studio Logo
00:00:52.000                             : en:Opening Credits
00:01:26.000                             : en:Scene 3
00:10:19.000                             : en:Scene 4
00:13:40.000                             : en:Scene 5
00:17:05.000                             : en:Scene 6
00:22:43.000                             : en:Scene 7
00:30:20.000                             : en:Scene 8
00:36:20.000                             : en:Scene 9
00:41:08.000                             : en:Scene 10
00:47:18.000                             : en:Scene 11
00:52:43.000                             : en:Scene 12
00:56:34.000                             : en:Scene 13
01:02:16.000                             : en:Scene 14
01:03:44.000                             : en:Scene 15
01:08:36.000                             : en:Scene 16
01:19:34.000                             : en:Scene 17
01:22:47.000                             : en:Scene 18
01:33:09.000                             : en:Scene 19
01:39:09.000                             : en:Scene 20
01:50:13.000                             : en:End Credits





Code:
http://uploaded.net/file/eyd22h29/Spen07e8.4830d7.ebc1.68a5.e.part1.part1.rar
http://uploaded.net/file/7xq1zmok/Spen07e8.4830d7.ebc1.68a5.e.part1.part2.rar
http://uploaded.net/file/0ei08br6/Spen07e8.4830d7.ebc1.68a5.e.part1.part3.rar
http://uploaded.net/file/x144qfx3/Spen07e8.4830d7.ebc1.68a5.e.part1.part4.rar
http://uploaded.net/file/jefshvgb/Spen07e8.4830d7.ebc1.68a5.e.part1.part5.rar
http://uploaded.net/file/7q9y6oj6/Spen07e8.4830d7.ebc1.68a5.e.part1.part6.rar


Code:
https://nitro.download/view/33C5F6ADCF8B0B5/Spen07e8.4830d7.ebc1.68a5.e.part1.rar
https://nitro.download/view/CD3381CE1E12DE3/Spen07e8.4830d7.ebc1.68a5.e.part2.rar
 

Similar threads

Top