Onkyo4k Online Sharing Community

Register a free account today to become a member! Once signed in, you'll be able to participate on this site by adding your own topics and posts, as well as connect with other members through your own private inbox!

Marvel Studios Legends S01 2160p DSNP WEB-DL x265 10bit HDR DDP5 1 Atmos

Short, Action, Fantasy, Sci-Fi IMDB: 6.5

ace71

VIP Member
Marvel Studios Legends S01 2160p DSNP WEB-DL x265 10bit HDR DDP5 1 Atmos




Code:
https://www.imdb.com/title/tt13650480/
Code:
General
Unique ID                                : 42290544679893648478812138515969462002 (0x1FD0DCD5BC4B9D246BAA122D6F7DCEF2)
Complete name                            : Marvel.Studios.Legends.S01E01.HDR.2160p.WEB.h265-KOGi.mkv
Format                                   : Matroska
Format version                           : Version 4
File size                                : 878 MiB
Duration                                 : 7 min 24 s
Overall bit rate                         : 16.6 Mb/s
Writing application                      : mkvmerge v51.0.0 ('I Wish') 64-bit
Writing library                          : libebml v1.4.0 + libmatroska v1.6.2

Video
ID                                       : 1
Format                                   : HEVC
Format/Info                              : High Efficiency Video Coding
Format profile                           : Main [email protected]@High
HDR format                               : SMPTE ST 2086, HDR10 compatible
Codec ID                                 : V_MPEGH/ISO/HEVC
Duration                                 : 7 min 24 s
Bit rate                                 : 15.8 Mb/s
Width                                    : 3 840 pixels
Height                                   : 2 160 pixels
Display aspect ratio                     : 16:9
Frame rate mode                          : Constant
Frame rate                               : 23.976 (24000/1001) FPS
Color space                              : YUV
Chroma subsampling                       : 4:2:0
Bit depth                                : 10 bits
Bits/(Pixel*Frame)                       : 0.080
Stream size                              : 837 MiB (95%)
Language                                 : English
Default                                  : Yes
Forced                                   : No
Color range                              : Limited
Color primaries                          : BT.2020
Transfer characteristics                 : PQ
Matrix coefficients                      : BT.2020 non-constant
Mastering display color primaries        : BT.2020
Mastering display luminance              : min: 0.0000 cd/m2, max: 1000 cd/m2

Audio
ID                                       : 2
Format                                   : E-AC-3 JOC
Format/Info                              : Enhanced AC-3 with Joint Object Coding
Commercial name                          : Dolby Digital Plus with Dolby Atmos
Format settings                          : Dolby Surround EX
Codec ID                                 : A_EAC3
Duration                                 : 7 min 24 s
Bit rate mode                            : Constant
Bit rate                                 : 768 kb/s
Channel(s)                               : 6 channels
Channel layout                           : L R C LFE Ls Rs
Sampling rate                            : 48.0 kHz
Frame rate                               : 31.250 FPS (1536 SPF)
Compression mode                         : Lossy
Stream size                              : 40.7 MiB (5%)
Language                                 : English
Service kind                             : Complete Main
Default                                  : Yes
Forced                                   : No
Complexity index                         : 16
Number of dynamic objects                : 15
Bed channel count                        : 1 channel
Bed channel configuration                : LFE

Text #1
ID                                       : 3
Format                                   : UTF-8
Codec ID                                 : S_TEXT/UTF8
Codec ID/Info                            : UTF-8 Plain Text
Duration                                 : 7 min 7 s
Bit rate                                 : 71 b/s
Count of elements                        : 103
Stream size                              : 3.72 KiB (0%)
Title                                    : English (SDH)
Language                                 : English
Default                                  : No
Forced                                   : No

Text #2
ID                                       : 4
Format                                   : UTF-8
Codec ID                                 : S_TEXT/UTF8
Codec ID/Info                            : UTF-8 Plain Text
Duration                                 : 7 min 19 s
Bit rate                                 : 62 b/s
Count of elements                        : 81
Stream size                              : 3.34 KiB (0%)
Title                                    : Dansk
Language                                 : Danish
Default                                  : No
Forced                                   : No

Text #3
ID                                       : 5
Format                                   : UTF-8
Codec ID                                 : S_TEXT/UTF8
Codec ID/Info                            : UTF-8 Plain Text
Duration                                 : 7 min 19 s
Bit rate                                 : 62 b/s
Count of elements                        : 100
Stream size                              : 3.37 KiB (0%)
Title                                    : Deutsch
Language                                 : German
Default                                  : No
Forced                                   : No

Text #4
ID                                       : 6
Format                                   : UTF-8
Codec ID                                 : S_TEXT/UTF8
Codec ID/Info                            : UTF-8 Plain Text
Duration                                 : 7 min 19 s
Bit rate                                 : 60 b/s
Count of elements                        : 104
Stream size                              : 3.23 KiB (0%)
Title                                    : Español (Latinoamericano)
Language                                 : Spanish
Default                                  : No
Forced                                   : No

Text #5
ID                                       : 7
Format                                   : UTF-8
Codec ID                                 : S_TEXT/UTF8
Codec ID/Info                            : UTF-8 Plain Text
Duration                                 : 7 min 19 s
Bit rate                                 : 61 b/s
Count of elements                        : 105
Stream size                              : 3.33 KiB (0%)
Title                                    : Español
Language                                 : Spanish
Default                                  : No
Forced                                   : No

Text #6
ID                                       : 8
Format                                   : UTF-8
Codec ID                                 : S_TEXT/UTF8
Codec ID/Info                            : UTF-8 Plain Text
Duration                                 : 7 min 19 s
Bit rate                                 : 59 b/s
Count of elements                        : 103
Stream size                              : 3.22 KiB (0%)
Title                                    : Suomi
Language                                 : Finnish
Default                                  : No
Forced                                   : No

Text #7
ID                                       : 9
Format                                   : UTF-8
Codec ID                                 : S_TEXT/UTF8
Codec ID/Info                            : UTF-8 Plain Text
Duration                                 : 7 min 19 s
Bit rate                                 : 54 b/s
Count of elements                        : 104
Stream size                              : 2.90 KiB (0%)
Title                                    : Français
Language                                 : French
Default                                  : No
Forced                                   : No

Text #8
ID                                       : 10
Format                                   : UTF-8
Codec ID                                 : S_TEXT/UTF8
Codec ID/Info                            : UTF-8 Plain Text
Duration                                 : 7 min 19 s
Bit rate                                 : 68 b/s
Count of elements                        : 105
Stream size                              : 3.69 KiB (0%)
Title                                    : Français (Canadien)
Language                                 : French
Default                                  : No
Forced                                   : No

Text #9
ID                                       : 11
Format                                   : UTF-8
Codec ID                                 : S_TEXT/UTF8
Codec ID/Info                            : UTF-8 Plain Text
Duration                                 : 7 min 19 s
Bit rate                                 : 58 b/s
Count of elements                        : 103
Stream size                              : 3.14 KiB (0%)
Title                                    : Italiano
Language                                 : Italian
Default                                  : No
Forced                                   : No

Text #10
ID                                       : 12
Format                                   : UTF-8
Codec ID                                 : S_TEXT/UTF8
Codec ID/Info                            : UTF-8 Plain Text
Duration                                 : 7 min 19 s
Bit rate                                 : 57 b/s
Count of elements                        : 93
Stream size                              : 3.11 KiB (0%)
Title                                    : Nederlands
Language                                 : Dutch
Default                                  : No
Forced                                   : No

Text #11
ID                                       : 13
Format                                   : UTF-8
Codec ID                                 : S_TEXT/UTF8
Codec ID/Info                            : UTF-8 Plain Text
Duration                                 : 7 min 19 s
Bit rate                                 : 59 b/s
Count of elements                        : 103
Stream size                              : 3.19 KiB (0%)
Title                                    : Norsk
Language                                 : Norwegian
Default                                  : No
Forced                                   : No

Text #12
ID                                       : 14
Format                                   : UTF-8
Codec ID                                 : S_TEXT/UTF8
Codec ID/Info                            : UTF-8 Plain Text
Duration                                 : 7 min 19 s
Bit rate                                 : 61 b/s
Count of elements                        : 104
Stream size                              : 3.28 KiB (0%)
Title                                    : Polski
Language                                 : Polish
Default                                  : No
Forced                                   : No

Text #13
ID                                       : 15
Format                                   : UTF-8
Codec ID                                 : S_TEXT/UTF8
Codec ID/Info                            : UTF-8 Plain Text
Duration                                 : 7 min 19 s
Bit rate                                 : 60 b/s
Count of elements                        : 104
Stream size                              : 3.24 KiB (0%)
Title                                    : Português
Language                                 : Portuguese
Default                                  : No
Forced                                   : No

Text #14
ID                                       : 16
Format                                   : UTF-8
Codec ID                                 : S_TEXT/UTF8
Codec ID/Info                            : UTF-8 Plain Text
Duration                                 : 7 min 19 s
Bit rate                                 : 63 b/s
Count of elements                        : 104
Stream size                              : 3.39 KiB (0%)
Title                                    : Português (Brasil)
Language                                 : Portuguese
Default                                  : No
Forced                                   : No

Text #15
ID                                       : 17
Format                                   : UTF-8
Codec ID                                 : S_TEXT/UTF8
Codec ID/Info                            : UTF-8 Plain Text
Duration                                 : 7 min 19 s
Bit rate                                 : 56 b/s
Count of elements                        : 85
Stream size                              : 3.03 KiB (0%)
Title                                    : Svenska
Language                                 : Swedish
Default                                  : No
Forced                                   : No


Code:
Marvel Studios LEGENDS / Season 1 / Episodes

01    "Wanda Maximoff"    WandaVision 
02    "Vision"    WandaVision 
03    "Falcon"    The Falcon and the Winter Soldier 
04    "The Winter Soldier"    The Falcon and the Winter Soldier 
05    "Zemo"    The Falcon and the Winter Soldier
06    "Sharon Carter"    The Falcon and the Winter Soldier
07    "Loki"    Loki
08    "The Tesseract"    Loki
09    "Black Widow"    Black Widow
10    "Peggy Carter"    What If...?
11    "The Avengers Initiative"    What If...?
12    "The Ravagers"    What If...?
13    "The Ten Rings"    Shang-Chi and the Legend of the Ten Rings
14    "Hawkeye"


Code:
https://nitro.download/view/1AE6C3E155D9EFD/Legendd15.e2fccc157.d6c432.8d60c24.part1.rar
https://nitro.download/view/02E7F4DD950DA04/Legendd15.e2fccc157.d6c432.8d60c24.part2.rar
https://nitro.download/view/DA021587F6A7F6E/Legendd15.e2fccc157.d6c432.8d60c24.part3.rar
 

Similar threads

Top