Onkyo4k Online Sharing Community

Register a free account today to become a member! Once signed in, you'll be able to participate on this site by adding your own topics and posts, as well as connect with other members through your own private inbox!

G-D Luther S02 1080i BluRay Remux DTS-HD MA2 0 H 264-FraMeSToR

Crime, Drama, Mystery, Thriller IMDB: 8.4

XuanXit

Super Moderator
Staff member
Luther.S02.1080i.BluRay.Remux.DTS-HD.MA2.0.H.264-FraMeSToR

?t=1432393236

Imdb
Code:
     https://www.imdb.com/title/tt1474684/         /

Info
Code:
      General
Unique ID : 254923970918608518114378906374611097226 (0xBFC8922761D8CE9EA7743702E81B568A)
Complete name : Luther.S02E01.Uncut.1080i.DTS-HD.MA.2.0.AVC.REMUX-FraMeSToR.mkv
Format : Matroska
Format version : Version 4
File size : 10.1 GiB
Duration : 57 min 27 s
Overall bit rate mode : Variable
Overall bit rate : 25.0 Mb/s
Movie name : Luther.S02E01
Encoded date : UTC 2017-01-02 13:43:35
Writing application : mkvmerge v9.7.1 ('Pandemonium') 64bit
Writing library : libebml v1.3.4 + libmatroska v1.4.5

Video
ID : 1
Format : AVC
Format/Info : Advanced Video Codec
Format profile : [email protected]
Format settings : CABAC / 4 Ref Frames
Format settings, CABAC : Yes
Format settings, ReFrames : 4 frames
Codec ID : V_MPEG4/ISO/AVC
Duration : 57 min 27 s
Bit rate mode : Variable
Bit rate : 23.4 Mb/s
Maximum bit rate : 33.0 Mb/s
Width : 1 920 pixels
Height : 1 080 pixels
Display aspect ratio : 16:9
Frame rate mode : Constant
Frame rate : 25.000 FPS
Color space : YUV
Chroma subsampling : 4:2:0
Bit depth : 8 bits
Scan type : MBAFF
Scan type, store method : Interleaved fields
Scan order : Top Field First
Bits/(Pixel*Frame) : 0.451
Stream size : 9.38 GiB (93%)
Title : Video: MPEG-4 AVC Video / 23496 kbps / 1080i / 25 fps / 16:9 / High Profile 4.1
Language : English
Default : Yes
Forced : No

Audio
ID : 2
Format : DTS XLL
Format/Info : Digital Theater Systems
Commercial name : DTS-HD Master Audio
Codec ID : A_DTS
Duration : 57 min 27 s
Bit rate mode : Variable
Bit rate : 1 610 kb/s
Channel(s) : 2 channels
Channel layout : L R
Sampling rate : 48.0 kHz
Frame rate : 93.750 FPS (512 SPF)
Bit depth : 16 bits
Compression mode : Lossless
Stream size : 662 MiB (6%)
Title : Audio: English / DTS-HD Master Audio / 2.0 / 48 kHz / 1610 kbps / 16-bit (DTS Core: 2.0 / 48 kHz / 1509 kbps / 16-bit)
Language : English
Default : Yes
Forced : No

Text
ID : 3
Format : PGS
Codec ID : S_HDMV/PGS
Codec ID/Info : Picture based subtitle format used on BDs/HD-DVDs
Duration : 57 min 19 s
Bit rate : 46.3 kb/s
Count of elements : 1563
Stream size : 19.0 MiB (0%)
Title : English (SDH)
Language : English
Default : No
Forced : No
Password:
Code:
Onkyo4k.com

Uploaded
You need to reply to this in order to see this content.
Google Drive


If links is die, please post request in here:
Code:
https://onkyo4k.com/forums/donors-vip-request-zone.9/
I'll re-up it. Thank you!


Tool change file name in Onkyo4k (only for Vip member)
 

Similar threads

Top