Onkyo4k Online Sharing Community

Register a free account today to become a member! Once signed in, you'll be able to participate on this site by adding your own topics and posts, as well as connect with other members through your own private inbox!

Hellbound S01 1080p NF WEB-DL x265 10bit HDR DDP5 1 Atmos-AGLET

Crime, Drama, Fantasy, Horror, Mystery, Thriller IMDB: 6.7

ace71

VIP Member
Hellbound S01 1080p NF WEB-DL x265 10bit HDR DDP5 1 Atmos-AGLET






Code:
https://www.imdb.com/title/tt12235718/
Code:
General
Unique ID                                : 302823060840656718794033989122546409465 (0xE3D1999E584D313F095FC8CBA8831FF9)
Complete name                            : Hellbound.S01E01.Episode.1.1080p.NF.WEB-DL.x265.10bit.HDR.DDP5.1.Atmos-AGLET.mkv
Format                                   : Matroska
Format version                           : Version 4
File size                                : 2.38 GiB
Duration                                 : 48 min 51 s
Overall bit rate                         : 6 975 kb/s
Writing application                      : mkvmerge v63.0.0 ('Everything') 64-bit
Writing library                          : libebml v1.4.2 + libmatroska v1.6.4

Video
ID                                       : 1
Format                                   : HEVC
Format/Info                              : High Efficiency Video Coding
Format profile                           : Main [email protected]@Main
HDR format                               : SMPTE ST 2086, HDR10 compatible
Codec ID                                 : V_MPEGH/ISO/HEVC
Duration                                 : 47 min 14 s
Bit rate                                 : 5 619 kb/s
Width                                    : 1 920 pixels
Height                                   : 1 080 pixels
Display aspect ratio                     : 16:9
Frame rate mode                          : Constant
Frame rate                               : 23.976 (24000/1001) FPS
Color space                              : YUV
Chroma subsampling                       : 4:2:0 (Type 2)
Bit depth                                : 10 bits
Bits/(Pixel*Frame)                       : 0.113
Stream size                              : 1.85 GiB (78%)
Default                                  : Yes
Forced                                   : No
Color range                              : Limited
Color primaries                          : BT.2020
Transfer characteristics                 : PQ
Matrix coefficients                      : BT.2020 non-constant
Mastering display color primaries        : Display P3
Mastering display luminance              : min: 0.0001 cd/m2, max: 1000 cd/m2
Maximum Content Light Level              : 950 cd/m2
Maximum Frame-Average Light Level        : 116 cd/m2

Audio #1
ID                                       : 2
Format                                   : E-AC-3 JOC
Format/Info                              : Enhanced AC-3 with Joint Object Coding
Commercial name                          : Dolby Digital Plus with Dolby Atmos
Codec ID                                 : A_EAC3
Duration                                 : 48 min 51 s
Bit rate mode                            : Constant
Bit rate                                 : 768 kb/s
Channel(s)                               : 6 channels
Channel layout                           : L R C LFE Ls Rs
Sampling rate                            : 48.0 kHz
Frame rate                               : 31.250 FPS (1536 SPF)
Compression mode                         : Lossy
Stream size                              : 268 MiB (11%)
Language                                 : Korean
Service kind                             : Complete Main
Default                                  : Yes
Forced                                   : No
Complexity index                         : 16
Number of dynamic objects                : 15
Bed channel count                        : 1 channel
Bed channel configuration                : LFE

Audio #2
ID                                       : 3
Format                                   : E-AC-3 JOC
Format/Info                              : Enhanced AC-3 with Joint Object Coding
Commercial name                          : Dolby Digital Plus with Dolby Atmos
Codec ID                                 : A_EAC3
Duration                                 : 48 min 51 s
Bit rate mode                            : Constant
Bit rate                                 : 768 kb/s
Channel(s)                               : 6 channels
Channel layout                           : L R C LFE Ls Rs
Sampling rate                            : 48.0 kHz
Frame rate                               : 31.250 FPS (1536 SPF)
Compression mode                         : Lossy
Stream size                              : 268 MiB (11%)
Language                                 : English
Service kind                             : Complete Main
Default                                  : No
Forced                                   : No
Complexity index                         : 16
Number of dynamic objects                : 15
Bed channel count                        : 1 channel
Bed channel configuration                : LFE

Text #1
ID                                       : 4
Format                                   : UTF-8
Codec ID                                 : S_TEXT/UTF8
Codec ID/Info                            : UTF-8 Plain Text
Duration                                 : 47 min 2 s
Bit rate                                 : 0 b/s
Count of elements                        : 3
Stream size                              : 58.0 Bytes (0%)
Title                                    : Forced
Language                                 : Korean
Default                                  : Yes
Forced                                   : Yes

Text #2
ID                                       : 5
Format                                   : UTF-8
Codec ID                                 : S_TEXT/UTF8
Codec ID/Info                            : UTF-8 Plain Text
Duration                                 : 42 min 55 s
Bit rate                                 : 4 b/s
Count of elements                        : 42
Stream size                              : 1.41 KiB (0%)
Title                                    : Forced
Language                                 : English
Default                                  : No
Forced                                   : No

Text #3
ID                                       : 6
Format                                   : UTF-8
Codec ID                                 : S_TEXT/UTF8
Codec ID/Info                            : UTF-8 Plain Text
Duration                                 : 45 min 21 s
Bit rate                                 : 108 b/s
Count of elements                        : 842
Stream size                              : 36.1 KiB (0%)
Title                                    : SDH
Language                                 : Korean
Default                                  : No
Forced                                   : No

Text #4
ID                                       : 7
Format                                   : UTF-8
Codec ID                                 : S_TEXT/UTF8
Codec ID/Info                            : UTF-8 Plain Text
Duration                                 : 47 min 3 s
Bit rate                                 : 108 b/s
Count of elements                        : 660
Stream size                              : 37.3 KiB (0%)
Language                                 : Arabic
Default                                  : No
Forced                                   : No

Text #5
ID                                       : 8
Format                                   : UTF-8
Codec ID                                 : S_TEXT/UTF8
Codec ID/Info                            : UTF-8 Plain Text
Duration                                 : 47 min 3 s
Bit rate                                 : 61 b/s
Count of elements                        : 662
Stream size                              : 21.1 KiB (0%)
Language                                 : Czech
Default                                  : No
Forced                                   : No

Text #6
ID                                       : 9
Format                                   : UTF-8
Codec ID                                 : S_TEXT/UTF8
Codec ID/Info                            : UTF-8 Plain Text
Duration                                 : 47 min 3 s
Bit rate                                 : 56 b/s
Count of elements                        : 634
Stream size                              : 19.5 KiB (0%)
Language                                 : Danish
Default                                  : No
Forced                                   : No

Text #7
ID                                       : 10
Format                                   : UTF-8
Codec ID                                 : S_TEXT/UTF8
Codec ID/Info                            : UTF-8 Plain Text
Duration                                 : 47 min 3 s
Bit rate                                 : 63 b/s
Count of elements                        : 653
Stream size                              : 21.9 KiB (0%)
Language                                 : German
Default                                  : No
Forced                                   : No

Text #8
ID                                       : 11
Format                                   : UTF-8
Codec ID                                 : S_TEXT/UTF8
Codec ID/Info                            : UTF-8 Plain Text
Duration                                 : 47 min 2 s
Bit rate                                 : 104 b/s
Count of elements                        : 666
Stream size                              : 36.0 KiB (0%)
Language                                 : Greek
Default                                  : No
Forced                                   : No

Text #9
ID                                       : 12
Format                                   : UTF-8
Codec ID                                 : S_TEXT/UTF8
Codec ID/Info                            : UTF-8 Plain Text
Duration                                 : 44 min 50 s
Bit rate                                 : 65 b/s
Count of elements                        : 654
Stream size                              : 21.5 KiB (0%)
Language                                 : English
Default                                  : No
Forced                                   : No

Text #10
ID                                       : 13
Format                                   : UTF-8
Codec ID                                 : S_TEXT/UTF8
Codec ID/Info                            : UTF-8 Plain Text
Duration                                 : 44 min 50 s
Bit rate                                 : 72 b/s
Count of elements                        : 671
Stream size                              : 23.8 KiB (0%)
Language                                 : English
Default                                  : No
Forced                                   : No

Text #11
ID                                       : 14
Format                                   : UTF-8
Codec ID                                 : S_TEXT/UTF8
Codec ID/Info                            : UTF-8 Plain Text
Duration                                 : 45 min 17 s
Bit rate                                 : 85 b/s
Count of elements                        : 824
Stream size                              : 28.3 KiB (0%)
Title                                    : SDH
Language                                 : English
Default                                  : No
Forced                                   : No

Text #12
ID                                       : 15
Format                                   : UTF-8
Codec ID                                 : S_TEXT/UTF8
Codec ID/Info                            : UTF-8 Plain Text
Duration                                 : 47 min 3 s
Bit rate                                 : 63 b/s
Count of elements                        : 654
Stream size                              : 21.7 KiB (0%)
Language                                 : Spanish
Default                                  : No
Forced                                   : No

Text #13
ID                                       : 16
Format                                   : UTF-8
Codec ID                                 : S_TEXT/UTF8
Codec ID/Info                            : UTF-8 Plain Text
Duration                                 : 47 min 2 s
Bit rate                                 : 62 b/s
Count of elements                        : 642
Stream size                              : 21.6 KiB (0%)
Title                                    : European
Language                                 : Spanish
Default                                  : No
Forced                                   : No

Text #14
ID                                       : 17
Format                                   : UTF-8
Codec ID                                 : S_TEXT/UTF8
Codec ID/Info                            : UTF-8 Plain Text
Duration                                 : 47 min 2 s
Bit rate                                 : 59 b/s
Count of elements                        : 557
Stream size                              : 20.4 KiB (0%)
Language                                 : Finnish
Default                                  : No
Forced                                   : No

Text #15
ID                                       : 18
Format                                   : UTF-8
Codec ID                                 : S_TEXT/UTF8
Codec ID/Info                            : UTF-8 Plain Text
Duration                                 : 47 min 3 s
Bit rate                                 : 60 b/s
Count of elements                        : 642
Stream size                              : 21.0 KiB (0%)
Language                                 : French
Default                                  : No
Forced                                   : No

Text #16
ID                                       : 19
Format                                   : UTF-8
Codec ID                                 : S_TEXT/UTF8
Codec ID/Info                            : UTF-8 Plain Text
Duration                                 : 47 min 3 s
Bit rate                                 : 96 b/s
Count of elements                        : 665
Stream size                              : 33.1 KiB (0%)
Language                                 : Hebrew
Default                                  : No
Forced                                   : No

Text #17
ID                                       : 20
Format                                   : UTF-8
Codec ID                                 : S_TEXT/UTF8
Codec ID/Info                            : UTF-8 Plain Text
Duration                                 : 47 min 3 s
Bit rate                                 : 56 b/s
Count of elements                        : 660
Stream size                              : 19.5 KiB (0%)
Language                                 : Croatian
Default                                  : No
Forced                                   : No

Text #18
ID                                       : 21
Format                                   : UTF-8
Codec ID                                 : S_TEXT/UTF8
Codec ID/Info                            : UTF-8 Plain Text
Duration                                 : 47 min 3 s
Bit rate                                 : 61 b/s
Count of elements                        : 647
Stream size                              : 21.3 KiB (0%)
Language                                 : Hungarian
Default                                  : No
Forced                                   : No

Text #19
ID                                       : 22
Format                                   : UTF-8
Codec ID                                 : S_TEXT/UTF8
Codec ID/Info                            : UTF-8 Plain Text
Duration                                 : 47 min 3 s
Bit rate                                 : 63 b/s
Count of elements                        : 664
Stream size                              : 21.8 KiB (0%)
Language                                 : Indonesian
Default                                  : No
Forced                                   : No

Text #20
ID                                       : 23
Format                                   : UTF-8
Codec ID                                 : S_TEXT/UTF8
Codec ID/Info                            : UTF-8 Plain Text
Duration                                 : 47 min 3 s
Bit rate                                 : 60 b/s
Count of elements                        : 651
Stream size                              : 20.8 KiB (0%)
Language                                 : Italian
Default                                  : No
Forced                                   : No

Text #21
ID                                       : 24
Format                                   : UTF-8
Codec ID                                 : S_TEXT/UTF8
Codec ID/Info                            : UTF-8 Plain Text
Duration                                 : 47 min 3 s
Bit rate                                 : 62 b/s
Count of elements                        : 687
Stream size                              : 21.7 KiB (0%)
Language                                 : Japanese
Default                                  : No
Forced                                   : No

Text #22
ID                                       : 25
Format                                   : UTF-8
Codec ID                                 : S_TEXT/UTF8
Codec ID/Info                            : UTF-8 Plain Text
Duration                                 : 47 min 2 s
Bit rate                                 : 60 b/s
Count of elements                        : 648
Stream size                              : 20.9 KiB (0%)
Language                                 : Malay
Default                                  : No
Forced                                   : No

Text #23
ID                                       : 26
Format                                   : UTF-8
Codec ID                                 : S_TEXT/UTF8
Codec ID/Info                            : UTF-8 Plain Text
Duration                                 : 47 min 2 s
Bit rate                                 : 57 b/s
Count of elements                        : 610
Stream size                              : 19.7 KiB (0%)
Language                                 : Norwegian Bokmal
Default                                  : No
Forced                                   : No

Text #24
ID                                       : 27
Format                                   : UTF-8
Codec ID                                 : S_TEXT/UTF8
Codec ID/Info                            : UTF-8 Plain Text
Duration                                 : 47 min 3 s
Bit rate                                 : 58 b/s
Count of elements                        : 598
Stream size                              : 20.0 KiB (0%)
Language                                 : Dutch
Default                                  : No
Forced                                   : No

Text #25
ID                                       : 28
Format                                   : UTF-8
Codec ID                                 : S_TEXT/UTF8
Codec ID/Info                            : UTF-8 Plain Text
Duration                                 : 47 min 2 s
Bit rate                                 : 57 b/s
Count of elements                        : 660
Stream size                              : 19.9 KiB (0%)
Language                                 : Polish
Default                                  : No
Forced                                   : No

Text #26
ID                                       : 29
Format                                   : UTF-8
Codec ID                                 : S_TEXT/UTF8
Codec ID/Info                            : UTF-8 Plain Text
Duration                                 : 47 min 2 s
Bit rate                                 : 62 b/s
Count of elements                        : 636
Stream size                              : 21.5 KiB (0%)
Language                                 : Portuguese
Default                                  : No
Forced                                   : No

Text #27
ID                                       : 30
Format                                   : UTF-8
Codec ID                                 : S_TEXT/UTF8
Codec ID/Info                            : UTF-8 Plain Text
Duration                                 : 47 min 3 s
Bit rate                                 : 60 b/s
Count of elements                        : 649
Stream size                              : 20.7 KiB (0%)
Title                                    : Brazilian
Language                                 : Portuguese
Default                                  : No
Forced                                   : No

Text #28
ID                                       : 31
Format                                   : UTF-8
Codec ID                                 : S_TEXT/UTF8
Codec ID/Info                            : UTF-8 Plain Text
Duration                                 : 47 min 3 s
Bit rate                                 : 68 b/s
Count of elements                        : 647
Stream size                              : 23.6 KiB (0%)
Language                                 : Romanian
Default                                  : No
Forced                                   : No

Text #29
ID                                       : 32
Format                                   : UTF-8
Codec ID                                 : S_TEXT/UTF8
Codec ID/Info                            : UTF-8 Plain Text
Duration                                 : 47 min 2 s
Bit rate                                 : 99 b/s
Count of elements                        : 664
Stream size                              : 34.3 KiB (0%)
Language                                 : Russian
Default                                  : No
Forced                                   : No

Text #30
ID                                       : 33
Format                                   : UTF-8
Codec ID                                 : S_TEXT/UTF8
Codec ID/Info                            : UTF-8 Plain Text
Duration                                 : 47 min 3 s
Bit rate                                 : 60 b/s
Count of elements                        : 597
Stream size                              : 20.8 KiB (0%)
Language                                 : Swedish
Default                                  : No
Forced                                   : No

Text #31
ID                                       : 34
Format                                   : UTF-8
Codec ID                                 : S_TEXT/UTF8
Codec ID/Info                            : UTF-8 Plain Text
Duration                                 : 47 min 3 s
Bit rate                                 : 172 b/s
Count of elements                        : 665
Stream size                              : 59.3 KiB (0%)
Language                                 : Thai
Default                                  : No
Forced                                   : No

Text #32
ID                                       : 35
Format                                   : UTF-8
Codec ID                                 : S_TEXT/UTF8
Codec ID/Info                            : UTF-8 Plain Text
Duration                                 : 47 min 2 s
Bit rate                                 : 62 b/s
Count of elements                        : 640
Stream size                              : 21.5 KiB (0%)
Language                                 : Turkish
Default                                  : No
Forced                                   : No

Text #33
ID                                       : 36
Format                                   : UTF-8
Codec ID                                 : S_TEXT/UTF8
Codec ID/Info                            : UTF-8 Plain Text
Duration                                 : 47 min 3 s
Bit rate                                 : 99 b/s
Count of elements                        : 666
Stream size                              : 34.2 KiB (0%)
Language                                 : Ukrainian
Default                                  : No
Forced                                   : No

Text #34
ID                                       : 37
Format                                   : UTF-8
Codec ID                                 : S_TEXT/UTF8
Codec ID/Info                            : UTF-8 Plain Text
Duration                                 : 47 min 3 s
Bit rate                                 : 93 b/s
Count of elements                        : 665
Stream size                              : 32.3 KiB (0%)
Language                                 : Vietnamese
Default                                  : No
Forced                                   : No

Text #35
ID                                       : 38
Format                                   : UTF-8
Codec ID                                 : S_TEXT/UTF8
Codec ID/Info                            : UTF-8 Plain Text
Duration                                 : 47 min 2 s
Bit rate                                 : 67 b/s
Count of elements                        : 672
Stream size                              : 23.2 KiB (0%)
Title                                    : Simplified
Language                                 : Chinese
Default                                  : No
Forced                                   : No

Text #36
ID                                       : 39
Format                                   : UTF-8
Codec ID                                 : S_TEXT/UTF8
Codec ID/Info                            : UTF-8 Plain Text
Duration                                 : 47 min 3 s
Bit rate                                 : 67 b/s
Count of elements                        : 667
Stream size                              : 23.3 KiB (0%)
Title                                    : Traditional
Language                                 : Chinese
Default                                  : No
Forced                                   : No




Code:
https://nitro.download/view/D3915870F4B7E9F/Hell5b341a1520d42b0881d6cc0233ac31858.part1.rar
https://nitro.download/view/53159934B6449F4/Hell5b341a1520d42b0881d6cc0233ac31858.part2.rar
https://nitro.download/view/970280D86B6F77C/Hell5b341a1520d42b0881d6cc0233ac31858.part3.rar
https://nitro.download/view/8BD42DE138FA63E/Hell5b341a1520d42b0881d6cc0233ac31858.part4.rar
 
Last edited:

Similar threads

Top