Onkyo4k Online Sharing Community

Register a free account today to become a member! Once signed in, you'll be able to participate on this site by adding your own topics and posts, as well as connect with other members through your own private inbox!

Female Vampire.1973 1080p BluRay x264-SADPANDA

Horror IMDB: 4.8

ace71

VIP Member
Female Vampire.1973 1080p BluRay x264-SADPANDA




Code:
https://www.imdb.com/title/tt0069745/
Code:
General
Unique ID                                : 236404220403949283646166385939350445350 (0xB1D9CBF4E513BB648F7D92D4E8D25D26)
Complete name                            : Female.Vampire.1973.1080p.BluRay.x264-SADPANDA.mkv
Format                                   : Matroska
Format version                           : Version 4
File size                                : 6.56 GiB
Duration                                 : 1 h 40 min
Overall bit rate                         : 9 338 kb/s
Encoded date                             : UTC 2014-12-28 23:24:39
Writing application                      : mkvmerge v7.4.0 ('Circles') 32bit built on Dec 12 2014 12:10:09
Writing library                          : libebml v1.3.0 + libmatroska v1.4.1

Video
ID                                       : 1
Format                                   : AVC
Format/Info                              : Advanced Video Codec
Format profile                           : [email protected]
Format settings                          : CABAC / 5 Ref Frames
Format settings, CABAC                   : Yes
Format settings, Reference frames        : 5 frames
Codec ID                                 : V_MPEG4/ISO/AVC
Duration                                 : 1 h 40 min
Bit rate                                 : 8 695 kb/s
Width                                    : 1 920 pixels
Height                                   : 816 pixels
Display aspect ratio                     : 2.35:1
Frame rate mode                          : Constant
Frame rate                               : 23.976 (24000/1001) FPS
Color space                              : YUV
Chroma subsampling                       : 4:2:0
Bit depth                                : 8 bits
Scan type                                : Progressive
Bits/(Pixel*Frame)                       : 0.231
Stream size                              : 6.11 GiB (93%)
Writing library                          : x264 core 142 r2491 24e4fed
Encoding settings                        : cabac=1 / ref=5 / deblock=1:0:0 / analyse=0x3:0x133 / me=umh / subme=8 / psy=1 / psy_rd=1.00:0.00 / mixed_ref=1 / me_range=16 / chroma_me=1 / trellis=1 / 8x8dct=1 / cqm=0 / deadzone=21,11 / fast_pskip=0 / chroma_qp_offset=-2 / threads=12 / lookahead_threads=2 / sliced_threads=0 / nr=0 / decimate=1 / interlaced=0 / bluray_compat=0 / constrained_intra=0 / bframes=3 / b_pyramid=2 / b_adapt=1 / b_bias=0 / direct=1 / weightb=1 / open_gop=0 / weightp=2 / keyint=250 / keyint_min=23 / scenecut=40 / intra_refresh=0 / rc_lookahead=40 / rc=2pass / mbtree=1 / bitrate=8695 / ratetol=1.0 / qcomp=0.60 / qpmin=0 / qpmax=69 / qpstep=4 / cplxblur=20.0 / qblur=0.5 / ip_ratio=1.40 / aq=1:1.00
Language                                 : French
Default                                  : Yes
Forced                                   : No

Audio
ID                                       : 2
Format                                   : AC-3
Format/Info                              : Audio Coding 3
Commercial name                          : Dolby Digital
Codec ID                                 : A_AC3
Duration                                 : 1 h 40 min
Bit rate mode                            : Constant
Bit rate                                 : 640 kb/s
Channel(s)                               : 2 channels
Channel layout                           : L R
Sampling rate                            : 48.0 kHz
Frame rate                               : 31.250 FPS (1536 SPF)
Compression mode                         : Lossy
Stream size                              : 460 MiB (7%)
Language                                 : French
Service kind                             : Complete Main
Default                                  : Yes
Forced                                   : No

Text
ID                                       : 3
Format                                   : UTF-8
Codec ID                                 : S_TEXT/UTF8
Codec ID/Info                            : UTF-8 Plain Text
Duration                                 : 1 h 34 min
Bit rate                                 : 15 b/s
Count of elements                        : 289
Stream size                              : 10.7 KiB (0%)
Language                                 : English
Default                                  : Yes
Forced                                   : No




<---- FREE To Download At Premium Speed ---->


Code:
https://1fichier.com/?zok71rvy45bagrmk25wi&af=192587
 

Similar threads

Top