Onkyo4k Online Sharing Community

Register a free account today to become a member! Once signed in, you'll be able to participate on this site by adding your own topics and posts, as well as connect with other members through your own private inbox!

Clifford the Big Red Dog 2021 2160p WEB-DL DDP5 1 Atmos HDR HEVC-TEPES

Adventure, Comedy, Family, Fantasy IMDB: 6.0

ace71

VIP Member
Clifford the Big Red Dog 2021 2160p WEB-DL DDP5 1 Atmos HDR HEVC-TEPES




Code:
https://www.imdb.com/title/tt2397461/
Code:
General
Unique ID                                : 2088367276505487330131366051471389852 (0x1923474CD8781D34A93EA8913C7749C)
Complete name                            : Clifford.the.Big.Red.Dog.2021.2160p.WEB-DL.DDP5.1.Atmos.HDR.HEVC-TEPES.mkv
Format                                   : Matroska
Format version                           : Version 4
File size                                : 10.3 GiB
Duration                                 : 1 h 36 min
Overall bit rate                         : 15.3 Mb/s
Writing application                      : mkvmerge v62.0.0 ('Apollo') 64-bit
Writing library                          : libebml v1.4.2 + libmatroska v1.6.4

Video
ID                                       : 1
Format                                   : HEVC
Format/Info                              : High Efficiency Video Coding
Format profile                           : Main [email protected]@High
HDR format                               : SMPTE ST 2094 App 4, Version 1, HDR10+ Profile B compatible
Codec ID                                 : V_MPEGH/ISO/HEVC
Duration                                 : 1 h 36 min
Bit rate                                 : 14.5 Mb/s
Width                                    : 3 840 pixels
Height                                   : 2 160 pixels
Display aspect ratio                     : 16:9
Frame rate mode                          : Constant
Frame rate                               : 23.976 (24000/1001) FPS
Color space                              : YUV
Chroma subsampling                       : 4:2:0 (Type 2)
Bit depth                                : 10 bits
Bits/(Pixel*Frame)                       : 0.073
Stream size                              : 9.75 GiB (95%)
Language                                 : English
Default                                  : Yes
Forced                                   : No
Color range                              : Full
Color primaries                          : BT.2020
Transfer characteristics                 : PQ
Matrix coefficients                      : BT.2020 non-constant
Mastering display color primaries        : Display P3
Mastering display luminance              : min: 0.0001 cd/m2, max: 1000 cd/m2

Audio
ID                                       : 2
Format                                   : E-AC-3 JOC
Format/Info                              : Enhanced AC-3 with Joint Object Coding
Commercial name                          : Dolby Digital Plus with Dolby Atmos
Codec ID                                 : A_EAC3
Duration                                 : 1 h 36 min
Bit rate mode                            : Constant
Bit rate                                 : 768 kb/s
Channel(s)                               : 6 channels
Channel layout                           : L R C LFE Ls Rs
Sampling rate                            : 48.0 kHz
Frame rate                               : 31.250 FPS (1536 SPF)
Compression mode                         : Lossy
Stream size                              : 530 MiB (5%)
Language                                 : English
Service kind                             : Complete Main
Default                                  : Yes
Forced                                   : No
Complexity index                         : 16
Number of dynamic objects                : 15
Bed channel count                        : 1 channel
Bed channel configuration                : LFE

Text
ID                                       : 3
Format                                   : UTF-8
Codec ID                                 : S_TEXT/UTF8
Codec ID/Info                            : UTF-8 Plain Text
Duration                                 : 1 h 30 min
Bit rate                                 : 90 b/s
Count of elements                        : 1996
Stream size                              : 59.8 KiB (0%)
Language                                 : English
Default                                  : No
Forced                                   : No





Code:
https://nitro.download/view/09099D08DC1D1D6/Cliffabf6ff08cb220a817031365d83eb6d52c.part1.rar
https://nitro.download/view/BF329F37BCE59CD/Cliffabf6ff08cb220a817031365d83eb6d52c.part2.rar
https://nitro.download/view/CF0404087280137/Cliffabf6ff08cb220a817031365d83eb6d52c.part3.rar
 

Similar threads

Top