Onkyo4k Online Sharing Community

Register a free account today to become a member! Once signed in, you'll be able to participate on this site by adding your own topics and posts, as well as connect with other members through your own private inbox!

Clifford The Big Red Dog 2021 1080p AMZN WEBRip DDP5 1 Atmos x264-NOGRP

Adventure, Comedy, Family, Fantasy IMDB: 6.0

ace71

VIP Member
Clifford The Big Red Dog 2021 1080p AMZN WEBRip DDP5 1 Atmos x264-NOGRP




Code:
https://www.imdb.com/title/tt2397461/
Code:
General
Unique ID                                : 68037213176189859005335860370508482750 (0x332F7D9932B9A738A01EB197231E08BE)
Complete name                            : Clifford.The.Big.Red.Dog.2021.1080p.AMZN.WEBRip.DDP5.1.Atmos.x264-NOGRP.mkv
Format                                   : Matroska
Format version                           : Version 4
File size                                : 6.44 GiB
Duration                                 : 1 h 36 min
Overall bit rate                         : 9 553 kb/s
Encoded date                             : UTC 2021-11-10 09:16:36
Writing application                      : mkvmerge v62.0.0.1 ('Apollo') 64-bit
Writing library                          : libebml v1.4.2 + libmatroska v1.6.4

Video
ID                                       : 1
Format                                   : AVC
Format/Info                              : Advanced Video Codec
Format profile                           : [email protected]
Format settings                          : CABAC / 4 Ref Frames
Format settings, CABAC                   : Yes
Format settings, Reference frames        : 4 frames
Codec ID                                 : V_MPEG4/ISO/AVC
Duration                                 : 1 h 36 min
Bit rate mode                            : Constant
Bit rate                                 : 8 783 kb/s
Nominal bit rate                         : 10 000 kb/s
Width                                    : 1 920 pixels
Height                                   : 960 pixels
Display aspect ratio                     : 2.000
Frame rate mode                          : Constant
Frame rate                               : 24.000 FPS
Color space                              : YUV
Chroma subsampling                       : 4:2:0
Bit depth                                : 8 bits
Scan type                                : Progressive
Bits/(Pixel*Frame)                       : 0.199
Stream size                              : 5.92 GiB (92%)
Default                                  : Yes
Forced                                   : No
Color range                              : Limited
Color primaries                          : BT.709
Transfer characteristics                 : BT.709
Matrix coefficients                      : BT.709

Audio
ID                                       : 2
Format                                   : E-AC-3 JOC
Format/Info                              : Enhanced AC-3 with Joint Object Coding
Commercial name                          : Dolby Digital Plus with Dolby Atmos
Codec ID                                 : A_EAC3
Duration                                 : 1 h 36 min
Bit rate mode                            : Constant
Bit rate                                 : 768 kb/s
Channel(s)                               : 6 channels
Channel layout                           : L R C LFE Ls Rs
Sampling rate                            : 48.0 kHz
Frame rate                               : 31.250 FPS (1536 SPF)
Compression mode                         : Lossy
Stream size                              : 530 MiB (8%)
Language                                 : English
Service kind                             : Complete Main
Default                                  : Yes
Forced                                   : No
Complexity index                         : 16
Number of dynamic objects                : 15
Bed channel count                        : 1 channel
Bed channel configuration                : LFE

Text #1
ID                                       : 3
Format                                   : UTF-8
Codec ID                                 : S_TEXT/UTF8
Codec ID/Info                            : UTF-8 Plain Text
Duration                                 : 1 h 27 min
Bit rate                                 : 83 b/s
Count of elements                        : 1676
Stream size                              : 53.5 KiB (0%)
Language                                 : English
Default                                  : Yes
Forced                                   : No

Text #2
ID                                       : 4
Format                                   : UTF-8
Codec ID                                 : S_TEXT/UTF8
Codec ID/Info                            : UTF-8 Plain Text
Duration                                 : 1 h 30 min
Bit rate                                 : 94 b/s
Count of elements                        : 1996
Stream size                              : 62.6 KiB (0%)
Title                                    : SDH
Language                                 : English
Default                                  : No
Forced                                   : No





Code:
https://nitro.download/view/60A501B5953E3DC/Cliffab75d6bd1b622838c43cc8e4d0b7af4f7.part1.rar
https://nitro.download/view/A7EA03012F34C7D/Cliffab75d6bd1b622838c43cc8e4d0b7af4f7.part2.rar
 

Similar threads

Top