Onkyo4k Online Sharing Community

Register a free account today to become a member! Once signed in, you'll be able to participate on this site by adding your own topics and posts, as well as connect with other members through your own private inbox!

Black Friday 2021 1080p WEBRip DD5 1 x264-NOGRP

Comedy, Horror IMDB: 4.7

ace71

VIP Member
Black Friday 2021 1080p WEBRip DD5 1 x264-NOGRP




Code:
https://www.imdb.com/title/tt11649338/
Code:
General
Unique ID                                : 309959139990085891674582299684687535308 (0xE92FF57C10D0E78052B7C08D53C75CCC)
Complete name                            : Black.Friday.2021.1080p.WEBRip.DD5.1.x264-NOGRP.mkv
Format                                   : Matroska
Format version                           : Version 4
File size                                : 4.23 GiB
Duration                                 : 1 h 24 min
Overall bit rate                         : 7 177 kb/s
Encoded date                             : UTC 2021-11-22 13:59:21
Writing application                      : mkvmerge v63.0.0 ('Everything') 64-bit
Writing library                          : libebml v1.4.2 + libmatroska v1.6.4

Video
ID                                       : 1
Format                                   : AVC
Format/Info                              : Advanced Video Codec
Format profile                           : [email protected]
Format settings                          : CABAC / 5 Ref Frames
Format settings, CABAC                   : Yes
Format settings, Reference frames        : 5 frames
Codec ID                                 : V_MPEG4/ISO/AVC
Duration                                 : 1 h 24 min
Bit rate                                 : 6 791 kb/s
Width                                    : 1 916 pixels
Height                                   : 796 pixels
Display aspect ratio                     : 2.40:1
Frame rate mode                          : Constant
Frame rate                               : 23.976 (24000/1001) FPS
Color space                              : YUV
Chroma subsampling                       : 4:2:0
Bit depth                                : 8 bits
Scan type                                : Progressive
Bits/(Pixel*Frame)                       : 0.186
Stream size                              : 4.00 GiB (95%)
Language                                 : English
Default                                  : Yes
Forced                                   : No
Color range                              : Limited
Color primaries                          : BT.709
Transfer characteristics                 : BT.709
Matrix coefficients                      : BT.709

Audio
ID                                       : 2
Format                                   : AC-3
Format/Info                              : Audio Coding 3
Commercial name                          : Dolby Digital
Codec ID                                 : A_AC3
Duration                                 : 1 h 24 min
Bit rate mode                            : Constant
Bit rate                                 : 384 kb/s
Channel(s)                               : 6 channels
Channel layout                           : L R C LFE Ls Rs
Sampling rate                            : 48.0 kHz
Frame rate                               : 31.250 FPS (1536 SPF)
Compression mode                         : Lossy
Stream size                              : 231 MiB (5%)
Title                                    : English
Language                                 : English
Service kind                             : Complete Main
Default                                  : Yes
Forced                                   : No

Text
ID                                       : 3
Format                                   : UTF-8
Codec ID                                 : S_TEXT/UTF8
Codec ID/Info                            : UTF-8 Plain Text
Duration                                 : 1 h 18 min
Bit rate                                 : 53 b/s
Count of elements                        : 1124
Stream size                              : 30.9 KiB (0%)
Language                                 : English
Default                                  : Yes
Forced                                   : No





Code:
http://uploaded.net/file/bvexjm5r/Blac07cf05.f61e07.88f44.4be1.part1.rar
http://uploaded.net/file/nokef16o/Blac07cf05.f61e07.88f44.4be1.part2.rar
http://uploaded.net/file/2lnxlybn/Blac07cf05.f61e07.88f44.4be1.part3.rar


Code:
https://nitro.download/view/56B39D2451F2A06/Blac07cf05.f61e07.88f44.4be1.rar
 

Similar threads

Top