Onkyo4k Online Sharing Community

Register a free account today to become a member! Once signed in, you'll be able to participate on this site by adding your own topics and posts, as well as connect with other members through your own private inbox!

Apex 2021 1080p WEBRip DD5 1 x264-NOGRP

Action, Thriller IMDB: 3.1

ace71

VIP Member
Apex 2021 1080p WEBRip DD5 1 x264-NOGRP




Code:
https://www.imdb.com/title/tt13265876/
Code:
General
Unique ID                                : 47642939967934793719590381858722251685 (0x23D7B24C02076D676FCF1FF4687583A5)
Complete name                            : Apex.2021.1080p.WEBRip.DD5.1.x264-NOGRP.mkv
Format                                   : Matroska
Format version                           : Version 4
File size                                : 4.66 GiB
Duration                                 : 1 h 33 min
Overall bit rate                         : 7 157 kb/s
Encoded date                             : UTC 2021-11-04 07:22:38
Writing application                      : mkvmerge v62.0.0.1 ('Apollo') 64-bit
Writing library                          : libebml v1.4.2 + libmatroska v1.6.4

Video
ID                                       : 1
Format                                   : AVC
Format/Info                              : Advanced Video Codec
Format profile                           : [email protected]
Format settings                          : CABAC / 5 Ref Frames
Format settings, CABAC                   : Yes
Format settings, Reference frames        : 5 frames
Codec ID                                 : V_MPEG4/ISO/AVC
Duration                                 : 1 h 33 min
Bit rate                                 : 6 770 kb/s
Width                                    : 1 916 pixels
Height                                   : 800 pixels
Display aspect ratio                     : 2.40:1
Frame rate mode                          : Constant
Frame rate                               : 23.976 (24000/1001) FPS
Color space                              : YUV
Chroma subsampling                       : 4:2:0
Bit depth                                : 8 bits
Scan type                                : Progressive
Bits/(Pixel*Frame)                       : 0.184
Stream size                              : 4.41 GiB (95%)
Default                                  : Yes
Forced                                   : No
Color range                              : Limited
Color primaries                          : BT.709
Transfer characteristics                 : BT.709
Matrix coefficients                      : BT.709

Audio
ID                                       : 2
Format                                   : AC-3
Format/Info                              : Audio Coding 3
Commercial name                          : Dolby Digital
Codec ID                                 : A_AC3
Duration                                 : 1 h 33 min
Bit rate mode                            : Constant
Bit rate                                 : 384 kb/s
Channel(s)                               : 6 channels
Channel layout                           : L R C LFE Ls Rs
Sampling rate                            : 48.0 kHz
Frame rate                               : 31.250 FPS (1536 SPF)
Compression mode                         : Lossy
Stream size                              : 256 MiB (5%)
Language                                 : English
Service kind                             : Complete Main
Default                                  : Yes
Forced                                   : No

Text #1
ID                                       : 3
Format                                   : UTF-8
Codec ID                                 : S_TEXT/UTF8
Codec ID/Info                            : UTF-8 Plain Text
Duration                                 : 1 h 28 min
Bit rate                                 : 50 b/s
Count of elements                        : 1140
Stream size                              : 32.6 KiB (0%)
Language                                 : English
Default                                  : Yes
Forced                                   : No

Text #2
ID                                       : 4
Format                                   : UTF-8
Codec ID                                 : S_TEXT/UTF8
Codec ID/Info                            : UTF-8 Plain Text
Duration                                 : 1 h 27 min
Bit rate                                 : 49 b/s
Count of elements                        : 1124
Stream size                              : 31.6 KiB (0%)
Language                                 : Spanish
Default                                  : No
Forced                                   : No

Text #3
ID                                       : 5
Format                                   : UTF-8
Codec ID                                 : S_TEXT/UTF8
Codec ID/Info                            : UTF-8 Plain Text
Duration                                 : 1 h 27 min
Bit rate                                 : 53 b/s
Count of elements                        : 1131
Stream size                              : 34.2 KiB (0%)
Language                                 : Portuguese
Default                                  : No
Forced                                   : No

Menu
00:00:00.000                             : en:Chapter 01
00:24:07.000                             : en:Chapter 02
00:43:05.000                             : en:Chapter 03
01:04:51.000                             : en:Chapter 04
01:31:07.000                             : en:Chapter 05





Code:
http://uploaded.net/file/sqw4dalq/Apex40cb2cff18b0b405d0ba2e080b61c3f2e.part1.rar
http://uploaded.net/file/8oqhj1jr/Apex40cb2cff18b0b405d0ba2e080b61c3f2e.part2.rar
http://uploaded.net/file/5jfl6b2v/Apex40cb2cff18b0b405d0ba2e080b61c3f2e.part3.rar


Code:
<---- Donation ---->

Want to support all my works ? Message Me. Thanz
 
Last edited:

Similar threads

Top